Loading...
Error

Грузовик Тёрнер / Truck Turner (Джонатан Каплан) [1974 г., боевик, криминал, триллер, BDRip] DVO

Статистика раздачи
Размер:  3.05 GB   |    Зарегистрирован:  11 месяцев   |    Скачан:  2 раза

Полного источника не было: 9 дней

Сидов:  0  |  0 KB/s  ]   Личеров:  0  |  0 KB/s  ]

* - сиды/пиры с внешних источников

   
 
Автор Сообщение

Renesans Пол:Муж

31-Янв-2021 06:28

Грузовик Тёрнер / Truck Turner


Название: Грузовик Тёрнер
Оригинальное название: Truck Turner
Страна: США
Жанр: боевик, криминал, триллер
Год выхода: 1974
Продолжительность: 01:31:26
Режиссер-постановщик: Джонатан Каплан
В фильме снимались: Айзек Хейз, Яфет Котто, Алан Викс, Анназетт Чейз, Нишелль Николс, Сэм Лоус, Пол Харрис, Чарльз Сайферс, Джон Крамер, Скэтмэн Крозерс, Дик Миллер, Боб Харрис, Жак Эмиль, Стэн Шоу, Уенделл Такер, Кларенс Барнс, Дон Уоттерс, Эстер Сазерленд, Генри Кинги, Джон Джейкобс, Дон Мегован, Ричард Селзер, Лиза Фаррингер

Описание: Трак Тёрнер, бывший профессиональный футболист, становится охотником за головами (вместе со своим партнёром Джерри) и разыскивает в Лос-Анджелесе сутенёра, уклоняющегося от оплаты залога. В перестрелке Трак убивает его и сам становится мишенью для наемных убийц...


Качество: BDRip-AVC
Формат: MKV
Видео: MPEG-4 AVC, 4390 Кбит/с, 1024x554, 23.976 кадр/с
Звук 1: русский, AC3, 192 kbps, 2 ch, 48 kHz [закадровый двухголосый, HTB+]
Звук 2: английский, AC3, 192 kbps, 2 ch, 48 kHz [оригинал]
Субтитры 1: русские (SRT) (с ненормативной лексикой)
Субтитры 2: английские (SRT)
Главы/чаптеры
---[Information] [30.01.2021 20:18:44] x264 [info]: frame I:936 Avg QP:22.28 size: 73761
---[Information] [30.01.2021 20:18:44] x264 [info]: frame P:25681 Avg QP:23.40 size: 39392
---[Information] [30.01.2021 20:18:44] x264 [info]: frame B:104938 Avg QP:24.64 size: 18395
---[Information] [30.01.2021 20:18:44] x264 [info]: consecutive B-frames: 1.2% 1.7% 4.7% 18.6% 18.1% 33.6% 9.4% 3.7% 3.4% 3.7% 1.3% 0.6%
---[Information] [30.01.2021 20:18:44] x264 [info]: mb I I16..4: 1.2% 89.8% 8.9%
---[Information] [30.01.2021 20:18:44] x264 [info]: mb P I16..4: 0.3% 22.0% 1.3% P16..4: 33.3% 28.0% 14.1% 0.0% 0.0% skip: 1.0%
---[Information] [30.01.2021 20:18:44] x264 [info]: mb B I16..4: 0.0% 2.0% 0.1% B16..8: 45.5% 16.8% 5.6% direct:10.2% skip:19.9% L0:46.8% L1:44.2% BI: 9.0%
---[Information] [30.01.2021 20:18:44] x264 [info]: 8x8 transform intra:93.1% inter:60.2%
---[Information] [30.01.2021 20:18:44] x264 [info]: coded y,uvDC,uvAC intra: 97.7% 76.2% 35.9% inter: 50.4% 28.2% 3.5%
---[Information] [30.01.2021 20:18:44] x264 [info]: i16 v,h,dc,p: 36% 33% 5% 26%
---[Information] [30.01.2021 20:18:44] x264 [info]: i8 v,h,dc,ddl,ddr,vr,hd,vl,hu: 7% 7% 9% 11% 15% 13% 13% 11% 13%
---[Information] [30.01.2021 20:18:45] x264 [info]: i4 v,h,dc,ddl,ddr,vr,hd,vl,hu: 11% 8% 2% 9% 15% 15% 15% 12% 13%
---[Information] [30.01.2021 20:18:45] x264 [info]: i8c dc,h,v,p: 38% 28% 19% 14%
---[Information] [30.01.2021 20:18:45] x264 [info]: Weighted P-Frames: Y:7.4% UV:3.3%
---[Information] [30.01.2021 20:18:45] x264 [info]: ref P L0: 39.5% 12.8% 18.3% 6.4% 5.8% 3.7% 3.6% 1.8% 1.9% 1.4% 1.4% 1.1% 1.2% 1.0% 0.1% 0.0%
---[Information] [30.01.2021 20:18:45] x264 [info]: ref B L0: 64.3% 12.6% 7.1% 3.9% 2.9% 2.4% 2.0% 1.2% 1.1% 1.0% 0.8% 0.5% 0.2%
---[Information] [30.01.2021 20:18:45] x264 [info]: ref B L1: 93.0% 7.0%
---[Information] [30.01.2021 20:18:45] x264 [info]: kb/s:4390.12
---[Information] [30.01.2021 20:18:45] encoded 131555 frames, 4.77 fps, 4390.12 kb/s

Общее
Уникальный идентификатор : 229646117787592125886431513361822749161 (0xACC43BC5BC0D3302BB6517DD977F91E9)
Полное имя : D:VideoГрузовик Тёрнер.1974.BDRip-AVC msltel.mkv
Формат : Matroska
Версия формата : Version 4
Размер файла : 3,05 Гбайт
Продолжительность : 1 ч. 31 м.
Общий поток : 4 776 Кбит/сек
Название фильма : Грузовик Тёрнер.1974.BDRip msltel
Дата кодирования : UTC 2021-01-30 13:47:57
Программа кодирования : mkvmerge v8.2.0 ('World of Adventure') 64bit
Библиотека кодирования : libebml v1.3.1 + libmatroska v1.4.2

Видео
Идентификатор : 1
Формат : AVC
Формат/Информация : Advanced Video Codec
Профиль формата : [email protected]
Настройки формата : CABAC / 14 Ref Frames
Параметр CABAC формата : Да
Параметр RefFrames формата : 14 кадров
Идентификатор кодека : V_MPEG4/ISO/AVC
Продолжительность : 1 ч. 31 м.
Битрейт : 4 390 Кбит/сек
Ширина : 1 024 пикселя
Высота : 554 пикселя
Соотношение сторон : 1,85:1
Режим частоты кадров : Постоянный
Частота кадров : 23,976 (24000/1001) кадра/сек
Цветовое пространство : YUV
Субдискретизация насыщенности : 4:2:0
Битовая глубина : 8 бит
Тип развёртки : Прогрессивная
Бит/(Пиксели*Кадры) : 0.323
Размер потока : 2,80 Гбайт (92%)
Библиотека кодирования : x264 core 161 r3018 db0d417
Настройки программы : cabac=1 / ref=14 / deblock=1:-3:-3 / analyse=0x3:0x113 / me=umh / subme=10 / psy=1 / psy_rd=1.00:0.00 / mixed_ref=1 / me_range=32 / chroma_me=1 / trellis=2 / 8x8dct=1 / cqm=0 / deadzone=21,11 / fast_pskip=0 / chroma_qp_offset=-2 / threads=12 / lookahead_threads=3 / sliced_threads=0 / nr=0 / decimate=0 / interlaced=0 / bluray_compat=0 / constrained_intra=0 / bframes=11 / b_pyramid=2 / b_adapt=2 / b_bias=0 / direct=1 / weightb=1 / open_gop=0 / weightp=2 / keyint=230 / keyint_min=23 / scenecut=40 / intra_refresh=0 / rc_lookahead=40 / rc=crf / mbtree=0 / crf=20.9 / qcomp=0.60 / qpmin=0 / qpmax=69 / qpstep=4 / vbv_maxrate=62500 / vbv_bufsize=78125 / crf_max=0.0 / nal_hrd=none / filler=0 / ip_ratio=1.40 / pb_ratio=1.30 / aq=3:1.00
Язык : English
Default : Да
Forced : Нет

Аудио #1
Идентификатор : 2
Формат : AC-3
Формат/Информация : Audio Coding 3
Коммерческое название : Dolby Digital
Идентификатор кодека : A_AC3
Продолжительность : 1 ч. 31 м.
Вид битрейта : Постоянный
Битрейт : 192 Кбит/сек
Каналы : 2 канала
Channel layout : L R
Частота : 48,0 КГц
Частота кадров : 31,250 кадров/сек (1536 SPF)
Метод сжатия : С потерями
Размер потока : 126 Мбайт (4%)
Заголовок : DVO HTB+
Язык : Russian
Service kind : Complete Main
Default : Да
Forced : Нет

Аудио #2
Идентификатор : 3
Формат : AC-3
Формат/Информация : Audio Coding 3
Коммерческое название : Dolby Digital
Идентификатор кодека : A_AC3
Продолжительность : 1 ч. 31 м.
Вид битрейта : Постоянный
Битрейт : 192 Кбит/сек
Каналы : 2 канала
Channel layout : L R
Частота : 48,0 КГц
Частота кадров : 31,250 кадров/сек (1536 SPF)
Метод сжатия : С потерями
Размер потока : 126 Мбайт (4%)
Заголовок : оригинал
Язык : English
Service kind : Complete Main
Default : Нет
Forced : Нет

Текст #1
Идентификатор : 4
Формат : UTF-8
Идентификатор кодека : S_TEXT/UTF8
Идентификатор кодека/Информация : UTF-8 Plain Text
Продолжительность : 1 ч. 25 м.
Битрейт : 86 бит/сек
Count of elements : 757
Размер потока : 54,0 Кбайт (0%)
Заголовок : русские, с ненормативной лексикой
Язык : Russian
Default : Нет
Forced : Нет

Текст #2
Идентификатор : 5
Формат : UTF-8
Идентификатор кодека : S_TEXT/UTF8
Идентификатор кодека/Информация : UTF-8 Plain Text
Продолжительность : 1 ч. 27 м.
Битрейт : 50 бит/сек
Count of elements : 848
Размер потока : 32,3 Кбайт (0%)
Заголовок : английские
Язык : English
Default : Нет
Forced : Нет

Меню
00:00:00.000 : :
00:08:16.496 : :
00:21:10.269 : :
00:30:57.856 : :
00:39:22.360 : :
00:44:15.653 : :
00:53:42.219 : :
01:00:11.608 : :
01:07:49.065 : :
01:16:11.567 : :
01:26:41.196 : :
Исходник vs Рип

Этот торрент недоступен для скачивания без регистрации, однако доступен по публичной magnet-ссылке (источники с публичных трекеров). Перед использованием ссылки прочтите, пожалуйста Пользовательское соглашение, а также как можно дольше оставайтесь на раздаче! Для того, чтобы скачать сам торрент-файл (который видит больше источников), а также для того, чтобы поблагодарить релизера, вам необходимо зарегистрироваться. Если регистрироваться лень - вы можете также попробовать скачать релиз по нашим партнерским ссылкам ниже. Кроме того, зарегистрированным пользователям не показывается всплывающая реклама при скачивании.

[underver.se].t197227.torrent
Трекер: Зарегистрирован   [ 31.01.2021 06:28 ]  

Статус: T временная (by eXtatik at 09.06.2021 18:17)
Поблагодарили: пока никто не поблагодарил...
Тип торрента: публичный - доступные источники с открытых трекеров: 
Размер: 3.05 GB (занимает 0.7 DVDR, для записи нужно 1 болванка DVDR/RW)
 
 
Похожие темы
Форум Тема Автор Торрент Отв. Посл. сооб.
T Зарубежное кино [HDDVDRip / BDRip / WEB-DL / HDTV 1080/720р] Грузовик Тёрнер / Truck Turner (Джонатан Каплан) [1974 г., боевик, триллер, криминал, HDRip] DVO Renesans
1 | 0

0 | 286

6

31.01.2021 06:34


Яндекс.Метрика powered by Sphinx


В Н И М А Н И Е
Сайт не распространяет и не хранит электронные версии произведений, а лишь бесплатно и без коммерческой выгоды (не требуя взамен платы,
SMS и т.д.) предоставляет доступ к создаваемому пользователями каталогу ссылок на торрент-файлы, которые содержат только списки хеш-сумм.
Убедительная просьба с жалобами обращаться напрямую к пользователю, разместившему торрент файл.

Вверх