Loading...
Error

Встреча с прошлым (Сико Долидзе) [1966 г., драма, SATRip-AVC]

Статистика раздачи
Размер:  744 MB   |    Зарегистрирован:  4 дня   |    Скачан:  0 раз

Полного источника не было: Никогда

Сидов:  0  |  0 KB/s  ]   Личеров:  0  |  0 KB/s  ]

* - сиды/пиры с внешних источников

   
 
Автор Сообщение

Renesans Пол:Муж

24-Ноя-2021 21:47

Встреча с прошлым


Страна: СССР
Производство: Грузия-фильм

Жанр: драма
Год выпуска: 1966
Продолжительность: 01:37:58

Перевод: не требуется
Оригинальная аудиодорожка: русский
Cубтитры: нет

Режиссер-постановщик: Сико Долидзе

Актеры:
Лейла Абашидзе, Серго Закариадзе, Верико Анджапаридзе, Меги Цулукидзе, Кетеван Кикнадзе, Иосиф (Сосо) Гогичайшвили, Малхаз Бебуришвили, Гиули Чохонелидзе, Эроси Манджгаладзе, Тенгиз Арчвадзе, Ипполит Хвичия, Екатерина Верулашвили, Елена Сакварелидзе, Яков Трипольский, Читолия Чхеидзе, Григол Талаквадзе...
Об актёрах подробней

Описание:
В начале двадцатых годов, с приходом советской власти, в маленьком грузинском горном селении начинается тяжёлый период коллективизации. Нино покидает родной аул. Проходят годы, став известным хирургом она приезжает на празднование тридцатилетнего юбилея колхоза. В день её приезда, на берегу реки, находят неизвестного бродягу в тяжёлом состоянии. Приступив к операции, Нино узнаёт в этом человеке своего бывшего мужа. Мысли женщины-хирурга возвращаются к тем далёким дням...

Источник:DVB
Качество видео: SATRip-AVC
Формат видео: MKV

Видео: 704->780x336 (2,35:1), 25,000 кадра/сек, x264 core 161 ~ 868 кбит/сек, 0.147 бит/биксель
Аудио: 48 kHz, Dolby Digital AC3 2.0, 192 кбит

Раздача от:
Общее
Полное имя : Встреча с прошлым.1966.SATRip-AVC_[New-team]_by_AVP_Studio.mkv
Формат : Matroska
Версия формата : Version 2
Размер файла : 744 Мбайт
Продолжительность : 1 ч. 37 м.
Общий поток : 1 062 Кбит/сек
Дата кодирования : UTC 2021-11-20 12:34:49
Программа кодирования : mkvmerge v6.9.1 ('Blue Panther') 32bit built on Apr 18 2014 18:15:44
Библиотека кодирования : libebml v1.3.0 + libmatroska v1.4.1

Видео
Идентификатор : 1
Формат : AVC
Формат/Информация : Advanced Video Codec
Профиль формата : [email protected]
Настройки формата : CABAC / 10 Ref Frames
Параметр CABAC формата : Да
Параметр RefFrames формата : 10 кадров
Идентификатор кодека : V_MPEG4/ISO/AVC
Продолжительность : 1 ч. 37 м.
Битрейт : 868 Кбит/сек
Ширина : 704 пикселя
Высота : 336 пикселей
Соотношение сторон : 2,35:1
Соотношение сторон в оригинале : 2,35:1
Режим частоты кадров : Постоянный
Частота кадров : 25,000 кадров/сек
Цветовое пространство : YUV
Субдискретизация насыщенности : 4:2:0
Битовая глубина : 8 бит
Тип развёртки : Прогрессивная
Бит/(Пиксели*Кадры) : 0.147
Размер потока : 595 Мбайт (80%)
Библиотека кодирования : x264 core 161 r3018 db0d417
Настройки программы : cabac=1 / ref=10 / deblock=1:-2:-1 / analyse=0x3:0x113 / me=umh / subme=10 / psy=1 / psy_rd=1.00:0.00 / mixed_ref=1 / me_range=32 / chroma_me=1 / trellis=2 / 8x8dct=1 / cqm=0 / deadzone=21,11 / fast_pskip=1 / chroma_qp_offset=-2 / threads=6 / lookahead_threads=1 / sliced_threads=0 / nr=0 / decimate=0 / interlaced=0 / bluray_compat=0 / constrained_intra=0 / bframes=8 / b_pyramid=2 / b_adapt=2 / b_bias=0 / direct=3 / weightb=1 / open_gop=0 / weightp=2 / keyint=250 / keyint_min=25 / scenecut=40 / intra_refresh=0 / rc=2pass / mbtree=0 / bitrate=868 / ratetol=1.0 / qcomp=0.60 / qpmin=0 / qpmax=69 / qpstep=4 / cplxblur=20.0 / qblur=0.5 / ip_ratio=1.40 / pb_ratio=1.30 / aq=1:1.00
Default : Да
Forced : Нет

Аудио
Идентификатор : 2
Формат : AC-3
Формат/Информация : Audio Coding 3
Коммерческое название : Dolby Digital
Идентификатор кодека : A_AC3
Продолжительность : 1 ч. 37 м.
Вид битрейта : Постоянный
Битрейт : 192 Кбит/сек
Каналы : 2 канала
Channel layout : L R
Частота : 48,0 КГц
Частота кадров : 31,250 кадров/сек (1536 SPF)
Метод сжатия : С потерями
Размер потока : 135 Мбайт (18%)
Default : Да
Forced : Нет
pic pic pic pic

Этот торрент недоступен для скачивания без регистрации, однако доступен по публичной magnet-ссылке (источники с публичных трекеров). Перед использованием ссылки прочтите, пожалуйста Пользовательское соглашение, а также как можно дольше оставайтесь на раздаче! Для того, чтобы скачать сам торрент-файл (который видит больше источников), а также для того, чтобы поблагодарить релизера, вам необходимо зарегистрироваться. Если регистрироваться лень - вы можете также попробовать скачать релиз по нашим партнерским ссылкам ниже. Кроме того, зарегистрированным пользователям не показывается всплывающая реклама при скачивании.

[underver.se].t227650.torrent
Трекер: Зарегистрирован   [ 25.11.2021 06:10 ]  

Статус: проверено (by Robbertta at 25.11.2021 06:56)
Поблагодарили: пока никто не поблагодарил...
Тип торрента: публичный - доступные источники с открытых трекеров: 
Размер: 744 MB (занимает 0,17 DVDR, для записи нужно 1 болванка DVDR/RW)
 
 
Похожие темы
Форум Тема Автор Торрент Отв. Посл. сооб.
Наше кино [DVDRip, Low-Res HDRip, и т.д.] Встреча с прошлым (Сико Долидзе) [1966 г., драма, SATRip] Renesans
1 | 1

0 | 86

1

25.11.2021 06:19

National Geographic Встреча с Плутоном / Mission Pluto [2015 г., космос, научно-популярный, HDTVRip 1080i] VO + Original (Eng) Станислав Карбанович
1 | 0

0 | 1224

31

18.08.2015 15:33

Личности Встреча с Горбачевым / Meeting Gorbachev (Вернер Херцог, Андре Сингер) [2018, документальный, биография, история, WEB-DLRip] MVO ARI71
1 | 0

0 | 277

6

03.03.2021 11:22

Документальное кино [HDDVDRip / BDRip / WEB-DL / HDTV 1080/720р] Встреча с медведями / Знакомьтесь: медведи / Meet The Bears (Анушка Шофилд) [2019, документальный, природа, флора, фауна, HDTV 1080i] VO ARI71
2 | 0

0 | 172

2

13.08.2021 12:41


Яндекс.Метрика powered by Sphinx


В Н И М А Н И Е
Сайт не распространяет и не хранит электронные версии произведений, а лишь бесплатно и без коммерческой выгоды (не требуя взамен платы,
SMS и т.д.) предоставляет доступ к создаваемому пользователями каталогу ссылок на торрент-файлы, которые содержат только списки хеш-сумм.
Убедительная просьба с жалобами обращаться напрямую к пользователю, разместившему торрент файл.

Вверх