Loading...
Error

Законы границ / Las leyes de la frontera / Laws of the Border (Даниэль Монсон) [2021 г., боевик, триллер, криминал, приключения, WEB-DL 1080p] DVO (Pazl Voice) + Spa + Eng + Sub

Статистика раздачи
Размер:  3,82 GB   |    Зарегистрирован:  6 дней   |    Скачан:  9 раз
Сидов:  1  |  4 KB/s  ]   Личеров:  0  |  0 KB/s  ]

* - сиды/пиры с внешних источников

   
 
Автор Сообщение

makkol Пол:Муж

24-Ноя-2021 22:17

Законы границ / Las leyes de la frontera / Laws of the Border


Год выпуска: 2021
Жанр: боевик, триллер, криминал, приключения
Производство: Испания [Atresmedia Cine, Ikiru Films S.L., Las Leyes De La Frontera, Terraza Films]
Режиссер: Даниэль Монсон
В ролях: Бегонья Варгас, Пеп Тосар, Даниэль Ибаньес, Маркос Руис, Чечу Сальгадо, Гильермо Лашерас, Карлос Овьедо, Синтия Гарсия, Диего Молина Гарау, Ксавьер Мартин, Хорхе Апарисио, Виктор Мануэль Пахарес
Сюжет фильма:
История берет свое начало летом 1978 года. Игнасио Каньясу, замкнутому ученику, 17 лет, он живет в Жироне. Когда он встречает Зарко и Тере, двух молодых преступников из китайского квартала, он оказывается погруженным в непреодолимую череду краж и грабежей, которая будет продолжаться все лето и навсегда изменит его жизнь. Это история лета, когда Игнасио вырос, постоянно нарушая границу между двумя мирами, пересекая грань между добром и злом, между справедливостью и беззаконием...

  • Мировая премьера: 25 сентября 2021


Качество видео: WEB-DL 1080p

Продолжительность: 02:10:36
Формат: MKV
Видео: MPEG-4 AVC, 1920x1080 (16:9), 24.000 fps, 2436 kbps
Аудио #1: русский, любительский двухголосый закадровый (Pazl Voice), AC3 5.1, 48 kHz, 448 kbps
Аудио #2: испанский, E-AC3 5.1, 48 kHz, 640 kbps
Аудио #3: английский, E-AC3 5.1, 48 kHz, 640 kbps
Субтитры: русские, английские, украинские вшитые отключаемые

Код:

Общее
Уникальный идентификатор : 296862454354024521927280989370540115034 (0xDF55A1077C4D38BAB3A170AE9F70445A)
Полное имя : Laws.of.the.Border.2021.1080p_JNS82.mkv
Формат : Matroska
Версия формата : Version 4
Размер файла : 3,82 Гбайт
Продолжительность : 2 ч. 10 м.
Режим общего битрейта : Переменный
Общий поток : 4 185 Кбит/сек
Название фильма : Laws.of.the.Border.2021.1080p_JNS82
Дата кодирования : UTC 2021-11-24 11:33:41
Программа кодирования : mkvmerge v59.0.0 ('Shining Star') 64-bit
Библиотека кодирования : libebml v1.4.2 + libmatroska v1.6.4

Видео
Идентификатор : 1
Формат : AVC
Формат/Информация : Advanced Video Codec
Профиль формата : [email protected]
Настройки формата : CABAC / 3 Ref Frames
Параметр CABAC формата : Да
Параметр RefFrames формата : 3 кадра
Идентификатор кодека : V_MPEG4/ISO/AVC
Продолжительность : 2 ч. 10 м.
Вид битрейта : Переменный
Битрейт : 2 463 Кбит/сек
Максимальный битрейт : 4 980 Кбит/сек
Ширина : 1 920 пикселей
Высота : 1 080 пикселей
Соотношение сторон : 16:9
Режим частоты кадров : Постоянный
Частота кадров : 24,000 кадра/сек
Цветовое пространство : YUV
Субдискретизация насыщенности : 4:2:0
Битовая глубина : 8 бит
Тип развёртки : Прогрессивная
Бит/(Пиксели*Кадры) : 0.049
Размер потока : 2,24 Гбайт (59%)
Библиотека кодирования : x264 core 148 r2724 dbe0335
Настройки программы : cabac=1 / ref=3 / deblock=1:0:0 / analyse=0x1:0x111 / me=umh / subme=10 / psy=1 / psy_rd=1.00:0.00 / mixed_ref=1 / me_range=24 / chroma_me=1 / trellis=2 / 8x8dct=0 / cqm=0 / deadzone=21,11 / fast_pskip=1 / chroma_qp_offset=-2 / threads=8 / lookahead_threads=1 / sliced_threads=0 / nr=0 / decimate=1 / interlaced=0 / bluray_compat=0 / stitchable=1 / constrained_intra=0 / bframes=2 / b_pyramid=0 / b_adapt=2 / b_bias=0 / direct=3 / weightb=1 / open_gop=0 / weightp=2 / keyint=250 / keyint_min=24 / scenecut=0 / intra_refresh=0 / rc_lookahead=48 / rc=2pass / mbtree=1 / bitrate=2463 / ratetol=1.0 / qcomp=0.50 / qpmin=6 / qpmax=51 / qpstep=4 / cplxblur=20.0 / qblur=0.5 / vbv_maxrate=4980 / vbv_bufsize=6640 / nal_hrd=vbr / filler=0 / ip_ratio=1.40 / aq=1:1.00
Default : Да
Forced : Нет

Аудио #1
Идентификатор : 2
Формат : AC-3
Формат/Информация : Audio Coding 3
Коммерческое название : Dolby Digital
Идентификатор кодека : A_AC3
Продолжительность : 2 ч. 10 м.
Вид битрейта : Постоянный
Битрейт : 448 Кбит/сек
Каналы : 6 каналов
Channel layout : L R C LFE Ls Rs
Частота : 48,0 КГц
Частота кадров : 31,250 кадров/сек (1536 SPF)
Метод сжатия : С потерями
Размер потока : 419 Мбайт (11%)
Заголовок : [DVO] Pazl Voice
Язык : Russian
Service kind : Complete Main
Default : Да
Forced : Нет

Аудио #2
Идентификатор : 3
Формат : E-AC-3
Формат/Информация : Enhanced AC-3
Коммерческое название : Dolby Digital Plus
Идентификатор кодека : A_EAC3
Продолжительность : 2 ч. 10 м.
Вид битрейта : Постоянный
Битрейт : 640 Кбит/сек
Каналы : 6 каналов
Channel layout : L R C LFE Ls Rs
Частота : 48,0 КГц
Частота кадров : 31,250 кадров/сек (1536 SPF)
Метод сжатия : С потерями
Размер потока : 598 Мбайт (15%)
Заголовок : Spanish (Castilian)
Язык : Spanish
Service kind : Complete Main
Default : Нет
Forced : Нет

Аудио #3
Идентификатор : 4
Формат : E-AC-3
Формат/Информация : Enhanced AC-3
Коммерческое название : Dolby Digital Plus
Идентификатор кодека : A_EAC3
Продолжительность : 2 ч. 10 м.
Вид битрейта : Постоянный
Битрейт : 640 Кбит/сек
Каналы : 6 каналов
Channel layout : L R C LFE Ls Rs
Частота : 48,0 КГц
Частота кадров : 31,250 кадров/сек (1536 SPF)
Метод сжатия : С потерями
Размер потока : 598 Мбайт (15%)
Заголовок : English
Язык : English
Service kind : Complete Main
Default : Нет
Forced : Нет

Текст #1
Идентификатор : 5
Формат : UTF-8
Идентификатор кодека : S_TEXT/UTF8
Идентификатор кодека/Информация : UTF-8 Plain Text
Продолжительность : 2 ч. 9 м.
Битрейт : 77 бит/сек
Count of elements : 1756
Размер потока : 73,2 Кбайт (0%)
Заголовок : Russian
Язык : Russian
Default : Нет
Forced : Нет

Текст #2
Идентификатор : 6
Формат : UTF-8
Идентификатор кодека : S_TEXT/UTF8
Идентификатор кодека/Информация : UTF-8 Plain Text
Продолжительность : 2 ч. 9 м.
Битрейт : 52 бит/сек
Count of elements : 1729
Размер потока : 49,8 Кбайт (0%)
Заголовок : English
Язык : English
Default : Нет
Forced : Нет

Текст #3
Идентификатор : 7
Формат : UTF-8
Идентификатор кодека : S_TEXT/UTF8
Идентификатор кодека/Информация : UTF-8 Plain Text
Продолжительность : 2 ч. 6 м.
Битрейт : 65 бит/сек
Count of elements : 1922
Размер потока : 61,0 Кбайт (0%)
Заголовок : English (SDH)
Язык : English
Default : Нет
Forced : Нет

Текст #4
Идентификатор : 8
Формат : UTF-8
Идентификатор кодека : S_TEXT/UTF8
Идентификатор кодека/Информация : UTF-8 Plain Text
Продолжительность : 2 ч. 9 м.
Битрейт : 79 бит/сек
Count of elements : 1746
Размер потока : 75,4 Кбайт (0%)
Заголовок : Ukrainian
Язык : Ukrainian
Default : Нет
Forced : Нет

Меню
02:04:13.000 : End Credits

Этот торрент недоступен для скачивания без регистрации, однако доступен по публичной magnet-ссылке (источники с публичных трекеров). Перед использованием ссылки прочтите, пожалуйста Пользовательское соглашение, а также как можно дольше оставайтесь на раздаче! Для того, чтобы скачать сам торрент-файл (который видит больше источников), а также для того, чтобы поблагодарить релизера, вам необходимо зарегистрироваться. Если регистрироваться лень - вы можете также попробовать скачать релиз по нашим партнерским ссылкам ниже. Кроме того, зарегистрированным пользователям не показывается всплывающая реклама при скачивании.

[underver.se].t227652.torrent
Трекер: Зарегистрирован   [ 24.11.2021 22:17 ]  

Статус: проверено (by makkol at 24.11.2021 22:17)
Поблагодарили: 1 человек
Тип торрента: публичный - доступные источники с открытых трекеров: 
Размер: 3,82 GB (занимает 0,87 DVDR, для записи нужно 1 болванка DVDR/RW)
 
 
Похожие темы
Форум Тема Автор Торрент Отв. Посл. сооб.
Зарубежное кино [DVDRip, Low-Res HDRip, и т.д.] Законы границ / Las leyes de la frontera / Laws of the Border (Даниэль Монсон) [2021 г., боевик, триллер, криминал, приключения, WEB-DLRip-AVC] DVO (Pazl Voice) + Eng + Sub makkol
74 | 2

0 | 283

5

24.11.2021 22:09

Зарубежное кино [HDDVDRip / BDRip / WEB-DL / HDTV 1080/720р] Законы границ / Las leyes de la frontera / Laws of the Border (Даниэль Монсон) [2021 г., боевик, триллер, криминал, приключения, WEB-DL-HEVC 1080p] DVO (Pazl Voice) + Sub makkol
38 | 0

0 | 288

7

24.11.2021 22:22


Яндекс.Метрика powered by Sphinx


В Н И М А Н И Е
Сайт не распространяет и не хранит электронные версии произведений, а лишь бесплатно и без коммерческой выгоды (не требуя взамен платы,
SMS и т.д.) предоставляет доступ к создаваемому пользователями каталогу ссылок на торрент-файлы, которые содержат только списки хеш-сумм.
Убедительная просьба с жалобами обращаться напрямую к пользователю, разместившему торрент файл.

Вверх