Loading...
Error

Встреча с прошлым (Сико Долидзе) [1966 г., драма, SATRip]

Статистика раздачи
Размер:  746 MB   |    Зарегистрирован:  2 дня 17 часов   |    Скачан:  1 раз

Полного источника не было: 2 дня 16 часов

Сидов:  0  |  0 KB/s  ]   Личеров:  0  |  0 KB/s  ]

* - сиды/пиры с внешних источников

   
 
Автор Сообщение

Renesans Пол:Муж

25-Ноя-2021 06:19

Встреча с прошлым


Страна: СССР
Производство: Грузия-фильм
Жанр: драма
Год выпуска: 1966

Продолжительность: 01:37:58
Перевод: не требуется
Оригинальная аудиодорожка: русский
Cубтитры: нет

Режиссер-постановщик: Сико Долидзе

Актеры:
Лейла Абашидзе, Серго Закариадзе, Верико Анджапаридзе, Меги Цулукидзе, Кетеван Кикнадзе, Иосиф (Сосо) Гогичайшвили, Малхаз Бебуришвили, Гиули Чохонелидзе, Эроси Манджгаладзе, Тенгиз Арчвадзе, Ипполит Хвичия, Екатерина Верулашвили, Елена Сакварелидзе, Яков Трипольский, Читолия Чхеидзе, Григол Талаквадзе...

Об актёрах подробней

Описание:
В начале двадцатых годов, с приходом советской власти, в маленьком грузинском горном селении начинается тяжёлый период коллективизации. Нино покидает родной аул. Проходят годы, став известным хирургом она приезжает на празднование тридцатилетнего юбилея колхоза. В день её приезда, на берегу реки, находят неизвестного бродягу в тяжёлом состоянии. Приступив к операции, Нино узнаёт в этом человеке своего бывшего мужа. Мысли женщины-хирурга возвращаются к тем далёким дням...

Источник:DVB
Качество видео: SATRip
Формат видео: AVI
Видео: 704x304 (2,35:1), 25,000 кадра/сек, XviD 73 ~ 862 кбит/сек, 0.161 бит/биксель
Аудио: 48 kHz, Dolby Digital AC3 2.0, 192 кбит
Общее
Полное имя : Встреча с прошлым.1966.SATRip_[New-team]_by_AVP_Studio.avi
Формат : AVI
Формат/Информация : Audio Video Interleave
Размер файла : 746 Мбайт
Продолжительность : 1 ч. 37 м.
Общий поток : 1 064 Кбит/сек
Программа кодирования : VirtualDubMod 1.5.10.3 | www.virtualdub-fr.org || (build 2550/release)
Библиотека кодирования : VirtualDubMod build 2550/release

Видео
Идентификатор : 0
Формат : MPEG-4 Visual
Профиль формата : Advanced [email protected]
Настройки формата : BVOP1 / Custom Matrix
Параметр BVOP формата : 1
Параметр QPel формата : Нет
Параметр GMC формата : Без точки перехода
Параметр матрицы формата : Выборочная
Идентификатор кодека : XVID
Идентификатор кодека/Подсказка : XviD
Продолжительность : 1 ч. 37 м.
Битрейт : 862 Кбит/сек
Ширина : 704 пикселя
Высота : 304 пикселя
Соотношение сторон : 2,35:1
Частота кадров : 25,000 кадров/сек
Цветовое пространство : YUV
Субдискретизация насыщенности : 4:2:0
Битовая глубина : 8 бит
Тип развёртки : Прогрессивная
Метод сжатия : С потерями
Бит/(Пиксели*Кадры) : 0.161
Размер потока : 604 Мбайт (81%)
Библиотека кодирования : XviD 73

Аудио
Идентификатор : 1
Формат : AC-3
Формат/Информация : Audio Coding 3
Коммерческое название : Dolby Digital
Идентификатор кодека : 2000
Продолжительность : 1 ч. 37 м.
Вид битрейта : Постоянный
Битрейт : 192 Кбит/сек
Каналы : 2 канала
Channel layout : L R
Частота : 48,0 КГц
Частота кадров : 31,250 кадров/сек (1536 SPF)
Метод сжатия : С потерями
Размер потока : 135 Мбайт (18%)
Выравнивание : Разделение по промежуткам
Продолжительность промежутка : 40 мс. (1,00 видеокадр)
Время предзагрузки промежутка : 500 мс.
pic pic pic pic

Этот торрент недоступен для скачивания без регистрации, однако доступен по публичной magnet-ссылке (источники с публичных трекеров). Перед использованием ссылки прочтите, пожалуйста Пользовательское соглашение, а также как можно дольше оставайтесь на раздаче! Для того, чтобы скачать сам торрент-файл (который видит больше источников), а также для того, чтобы поблагодарить релизера, вам необходимо зарегистрироваться. Если регистрироваться лень - вы можете также попробовать скачать релиз по нашим партнерским ссылкам ниже. Кроме того, зарегистрированным пользователям не показывается всплывающая реклама при скачивании.

[underver.se].t227656.torrent
Трекер: Зарегистрирован   [ 25.11.2021 06:19 ]  

Статус: проверено (by Robbertta at 25.11.2021 06:28)
Поблагодарили: пока никто не поблагодарил...
Тип торрента: публичный - доступные источники с открытых трекеров: 
Размер: 746 MB (занимает 0,17 DVDR, для записи нужно 1 болванка DVDR/RW)
 
 
Похожие темы
Форум Тема Автор Торрент Отв. Посл. сооб.
Наше кино [DVDRip, Low-Res HDRip, и т.д.] Встреча с прошлым (Сико Долидзе) [1966 г., драма, SATRip-AVC] Renesans
2 | 0

0 | 58

0

24.11.2021 21:47

National Geographic Встреча с Плутоном / Mission Pluto [2015 г., космос, научно-популярный, HDTVRip 1080i] VO + Original (Eng) Станислав Карбанович
1 | 0

0 | 1224

31

18.08.2015 15:33

Личности Встреча с Горбачевым / Meeting Gorbachev (Вернер Херцог, Андре Сингер) [2018, документальный, биография, история, WEB-DLRip] MVO ARI71
1 | 0

0 | 277

6

03.03.2021 11:22

Документальное кино [HDDVDRip / BDRip / WEB-DL / HDTV 1080/720р] Встреча с медведями / Знакомьтесь: медведи / Meet The Bears (Анушка Шофилд) [2019, документальный, природа, флора, фауна, HDTV 1080i] VO ARI71
2 | 0

0 | 169

2

13.08.2021 12:41


Яндекс.Метрика powered by Sphinx


В Н И М А Н И Е
Сайт не распространяет и не хранит электронные версии произведений, а лишь бесплатно и без коммерческой выгоды (не требуя взамен платы,
SMS и т.д.) предоставляет доступ к создаваемому пользователями каталогу ссылок на торрент-файлы, которые содержат только списки хеш-сумм.
Убедительная просьба с жалобами обращаться напрямую к пользователю, разместившему торрент файл.

Вверх