Loading...
Error

Точка кипения / Boiling Point (Фил Барантини) [2021 г., триллер, драма, WEBRip] MVO (AlphaProject)

Статистика раздачи
Размер:  1,46 GB   |    Зарегистрирован:  3 дня   |    Скачан:  8 раз
Сидов:  1  |  0 KB/s  ]   Личеров:  0  |  0 KB/s  ]

* - сиды/пиры с внешних источников

   
 
Автор Сообщение

makkol Пол:Муж

25-Ноя-2021 10:41

Точка кипения / Boiling Point


Год выпуска: 2021
Жанр: триллер, драма
Производство: Великобритания [Ascendant Films, Burton Fox Films, White Hot Productions]
Режиссер: Фил Барантини
В ролях: Стивен Грэм, Винетт Робинсон, Элис Мэй Фитэм, Джейсон Флеминг, Ханна Уолтерс, Малачи Кирби, Идзука Хойл, Таз Скайлар, Лорин Аджуфо, Рэй Пантаки
Сюжет фильма:
Как это часто бывает — беда не приходит одна. Шеф-повар Энди катастрофически опаздывает на работу, на ходу пытаясь склеить свою личную жизнь по телефону. Его высокопрофессиональный вышколенный персонал пребывает в тревожном ожидании и на низком старте: они всегда готовы лечь грудью на амбразуру и отстоять честь заведения. Но самый большой кошмар заключается в том, что бывший босс Энди, фантастически елейный телеповар Аластер Скай, из всех возможных вечеров выбрал именно этот, чтобы заявиться на ужин к Энди, прихватив с собой элегантного ресторанного критика Сару.

  • Мировая премьера: 23 августа 2021


Качество видео: WEBRip

Продолжительность: 01:33:53
Формат: AVI
Видео: XviD, 720x304 (2.35:1), 23.976 fps, 1955 kbps
Аудио: русский, любительский многоголосый закадровый (AlphaProject), AC3 2.0, 48 kHz, 256 kbps

Код:

Общее
Полное имя                               : Boiling.Point.2021.WEBRip.avi
Формат                                   : AVI
Формат/Информация                        : Audio Video Interleave
Размер файла                             : 1,46 Гбайт
Продолжительность                        : 1 ч. 33 м.
Общий поток                              : 2 220 Кбит/сек
Программа кодирования                    : VirtualDubMod 1.5.10.3 | www.virtualdub-fr.org || (build 2550/release)
Библиотека кодирования                   : VirtualDubMod build 2550/release

Видео
Идентификатор                            : 0
Формат                                   : MPEG-4 Visual
Профиль формата                          : Advanced [email protected]
Настройки формата                        : BVOP1 / Custom Matrix
Параметр BVOP формата                    : 1
Параметр QPel формата                    : Нет
Параметр GMC формата                     : Без точки перехода
Параметр матрицы формата                 : Выборочная
Идентификатор кодека                     : XVID
Идентификатор кодека/Подсказка           : XviD
Продолжительность                        : 1 ч. 33 м.
Битрейт                                  : 1 955 Кбит/сек
Ширина                                   : 720 пикселей
Высота                                   : 304 пикселя
Соотношение сторон                       : 2,35:1
Частота кадров                           : 23,976 (24000/1001) кадра/сек
Цветовое пространство                    : YUV
Субдискретизация насыщенности            : 4:2:0
Битовая глубина                          : 8 бит
Тип развёртки                            : Прогрессивная
Метод сжатия                             : С потерями
Бит/(Пиксели*Кадры)                      : 0.373
Размер потока                            : 1,28 Гбайт (88%)
Библиотека кодирования                   : XviD 73

Аудио
Идентификатор                            : 1
Формат                                   : AC-3
Формат/Информация                        : Audio Coding 3
Коммерческое название                    : Dolby Digital
Идентификатор кодека                     : 2000
Продолжительность                        : 1 ч. 33 м.
Вид битрейта                             : Постоянный
Битрейт                                  : 256 Кбит/сек
Каналы                                   : 2 канала
Channel layout                           : L R
Частота                                  : 48,0 КГц
Частота кадров                           : 31,250 кадров/сек (1536 SPF)
Метод сжатия                             : С потерями
Размер потока                            : 172 Мбайт (12%)
Выравнивание                             : Разделение по промежуткам
Продолжительность промежутка             : 42  мс. (1,00 видеокадр)
Время предзагрузки промежутка            : 500  мс.
Service kind                             : Complete Main

Этот торрент недоступен для скачивания без регистрации, однако доступен по публичной magnet-ссылке (источники с публичных трекеров). Перед использованием ссылки прочтите, пожалуйста Пользовательское соглашение, а также как можно дольше оставайтесь на раздаче! Для того, чтобы скачать сам торрент-файл (который видит больше источников), а также для того, чтобы поблагодарить релизера, вам необходимо зарегистрироваться. Если регистрироваться лень - вы можете также попробовать скачать релиз по нашим партнерским ссылкам ниже. Кроме того, зарегистрированным пользователям не показывается всплывающая реклама при скачивании.

[underver.se].t227662.torrent
Трекер: Зарегистрирован   [ 25.11.2021 10:41 ]  

Статус: T временная (by makkol at 25.11.2021 10:42)
Поблагодарили: 1 человек
Тип торрента: публичный - доступные источники с открытых трекеров: 
Размер: 1,46 GB (занимает 1/3 DVDR, для записи нужно 1 болванка DVDR/RW)
 
 
Похожие темы
Форум Тема Автор Торрент Отв. Посл. сооб.
T Зарубежное кино [HDDVDRip / BDRip / WEB-DL / HDTV 1080/720р] Точка кипения / Boiling Point (Фил Барантини) [2021 г., триллер, драма, WEBRip 1080p] MVO (AlphaProject) makkol
58 | 2

0 | 263

10

25.11.2021 10:45


Яндекс.Метрика powered by Sphinx


В Н И М А Н И Е
Сайт не распространяет и не хранит электронные версии произведений, а лишь бесплатно и без коммерческой выгоды (не требуя взамен платы,
SMS и т.д.) предоставляет доступ к создаваемому пользователями каталогу ссылок на торрент-файлы, которые содержат только списки хеш-сумм.
Убедительная просьба с жалобами обращаться напрямую к пользователю, разместившему торрент файл.

Вверх