Loading...
Error

Точка кипения / Boiling Point (Фил Барантини) [2021 г., триллер, драма, WEBRip 1080p] MVO (AlphaProject)

Статистика раздачи
Размер:  4,66 GB   |    Зарегистрирован:  2 дня 10 часов   |    Скачан:  9 раз
Сидов:  2  |  153 KB/s  ]   Личеров:  4  |  2 MB/s  ]

* - сиды/пиры с внешних источников

   
 
Автор Сообщение

makkol Пол:Муж

25-Ноя-2021 10:45

Точка кипения / Boiling Point


Год выпуска: 2021
Жанр: триллер, драма
Производство: Великобритания [Ascendant Films, Burton Fox Films, White Hot Productions]
Режиссер: Фил Барантини
В ролях: Стивен Грэм, Винетт Робинсон, Элис Мэй Фитэм, Джейсон Флеминг, Ханна Уолтерс, Малачи Кирби, Идзука Хойл, Таз Скайлар, Лорин Аджуфо, Рэй Пантаки
Сюжет фильма:
Как это часто бывает — беда не приходит одна. Шеф-повар Энди катастрофически опаздывает на работу, на ходу пытаясь склеить свою личную жизнь по телефону. Его высокопрофессиональный вышколенный персонал пребывает в тревожном ожидании и на низком старте: они всегда готовы лечь грудью на амбразуру и отстоять честь заведения. Но самый большой кошмар заключается в том, что бывший босс Энди, фантастически елейный телеповар Аластер Скай, из всех возможных вечеров выбрал именно этот, чтобы заявиться на ужин к Энди, прихватив с собой элегантного ресторанного критика Сару.

  • Мировая премьера: 23 августа 2021


Качество видео: WEBRip 1080p

Продолжительность: 01:33:53
Формат: MKV
Видео: MPEG-4 AVC, 1920x800 (2.40:1), 23.976 fps, 6537 kbps
Аудио: русский, любительский многоголосый закадровый (AlphaProject), AC3 2.0, 48 kHz, 384 kbps

Код:

Общее
Полное имя                               : Boiling.Point.2021.WEBRip.1080p-LQ.mkv
Формат                                   : Matroska
Версия формата                           : Version 2
Размер файла                             : 4,66 Гбайт
Продолжительность                        : 1 ч. 33 м.
Режим общего битрейта                    : Переменный
Общий поток                              : 7 098 Кбит/сек
Программа кодирования                    : libmatroska 1.4.1
Библиотека кодирования                   : SolveigMM Matroska Muxer Version 1.0.1904.23

Видео
Идентификатор                            : 1
Формат                                   : AVC
Формат/Информация                        : Advanced Video Codec
Профиль формата                          : [email protected]
Настройки формата                        : CABAC / 4 Ref Frames
Параметр CABAC формата                   : Да
Параметр RefFrames формата               : 4 кадра
Идентификатор кодека                     : V_MPEG4/ISO/AVC
Продолжительность                        : 1 ч. 33 м.
Вид битрейта                             : Переменный
Битрейт                                  : 6 573 Кбит/сек
Номинальный битрейт                      : 8 000 Кбит/сек
Максимальный битрейт                     : 8 000 Кбит/сек
Ширина                                   : 1 920 пикселей
Высота                                   : 800 пикселей
Соотношение сторон                       : 2,40:1
Режим частоты кадров                     : Постоянный
Частота кадров                           : 23,976 (24000/1001) кадра/сек
Стандарт вещания                         : Component
Цветовое пространство                    : YUV
Субдискретизация насыщенности            : 4:2:0
Битовая глубина                          : 8 бит
Тип развёртки                            : Прогрессивная
Бит/(Пиксели*Кадры)                      : 0.178
Размер потока                            : 4,31 Гбайт (93%)
Default                                  : Нет
Forced                                   : Нет
Цветовой диапазон                        : Limited
Основные цвета                           : BT.709
Характеристики трансфера                 : BT.709
Коэффициенты матрицы                     : BT.709

Аудио
Идентификатор                            : 2
Формат                                   : AC-3
Формат/Информация                        : Audio Coding 3
Коммерческое название                    : Dolby Digital
Идентификатор кодека                     : A_AC3
Продолжительность                        : 1 ч. 33 м.
Вид битрейта                             : Постоянный
Битрейт                                  : 384 Кбит/сек
Каналы                                   : 2 канала
Channel layout                           : L R
Частота                                  : 48,0 КГц
Частота кадров                           : 31,250 кадров/сек (1536 SPF)
Метод сжатия                             : С потерями
Размер потока                            : 258 Мбайт (5%)
Язык                                     : Russian
Service kind                             : Complete Main
Default                                  : Нет
Forced                                   : Нет

Этот торрент недоступен для скачивания без регистрации, однако доступен по публичной magnet-ссылке (источники с публичных трекеров). Перед использованием ссылки прочтите, пожалуйста Пользовательское соглашение, а также как можно дольше оставайтесь на раздаче! Для того, чтобы скачать сам торрент-файл (который видит больше источников), а также для того, чтобы поблагодарить релизера, вам необходимо зарегистрироваться. Если регистрироваться лень - вы можете также попробовать скачать релиз по нашим партнерским ссылкам ниже. Кроме того, зарегистрированным пользователям не показывается всплывающая реклама при скачивании.

[underver.se].t227663.torrent
Трекер: Зарегистрирован   [ 25.11.2021 10:45 ]  

Статус: T временная (by makkol at 25.11.2021 10:46)
Поблагодарили: пока никто не поблагодарил...
Тип торрента: публичный - доступные источники с открытых трекеров: 
Размер: 4,66 GB (занимает 1,06 DVDR, для записи нужно 2 болванки DVDR/RW)
 
 
Похожие темы
Форум Тема Автор Торрент Отв. Посл. сооб.
T Зарубежное кино [DVDRip, Low-Res HDRip, и т.д.] Точка кипения / Boiling Point (Фил Барантини) [2021 г., триллер, драма, WEBRip] MVO (AlphaProject) makkol
66 | 2

0 | 169

8

25.11.2021 10:41


Яндекс.Метрика powered by Sphinx


В Н И М А Н И Е
Сайт не распространяет и не хранит электронные версии произведений, а лишь бесплатно и без коммерческой выгоды (не требуя взамен платы,
SMS и т.д.) предоставляет доступ к создаваемому пользователями каталогу ссылок на торрент-файлы, которые содержат только списки хеш-сумм.
Убедительная просьба с жалобами обращаться напрямую к пользователю, разместившему торрент файл.

Вверх