Loading...
Error

(Военная песня, Ретро) Дмитрий Хворостовский - Песни военных лет (2007) [FLAC (Image+.Cue), Lossless]

Статистика раздачи
Размер:  266 MB   |    Зарегистрирован:  3 года 11 месяцев   |    Скачан:  22 раза

Полного источника не было: 2 часа 57 минут

Сидов:  0  |  0 KB/s  ]   Личеров:  0  |  0 KB/s  ]

* - сиды/пиры с внешних источников

   
 
Автор Сообщение

Бишеп Пол:Муж

22-Фев-2018 05:24

Дмитрий Хворостовский - Песни военных лет

Жанр: Военная песня, Ретро
Год выпуска: 2007
Источник: CD
Производитель диска: DELOS - DE 3315
Аудиокодек: FLAC
Тип рипа: Image+.CUE
Битрейт аудио: lossless
Продолжительность: 00:57:29


Треклист:
01. Где-то далеко (Песня о далекой родине) (4:02)
02. Темная ночь (3:34)
03. Случайный вальс (2:56)
04. Где-же вы теперь, друзья-однополчане? (3:40)
05. На безымянной высоте (4:22)
06. Дороги (4:51)
07. Вот солдаты идут (2:59)
08. Журавли (4:16)
09. В землянке (3:02)
10. Заветный камень (4:36)
11. Катюша (2:14)
12. Казаки в Берлине (2:18)
13. Моя Москва (2:37)
14. Дорожка фронтовая (Песенка фронтового шофера) (2:17)
15. На сопках Маньчжурии (2:56)
16. Одинокая гармонь (3:08)
17. Последний бой (3:40)

Код:

Exact Audio Copy V1.0 beta 3 from 29. August 2011

Отчёт EAC об извлечении, выполненном 24. апреля 2013, 19:26

Дмитрий Хворостовский / Песни военных лет

Дисковод: ASUS    DRW-1814BLT   Adapter: 1  ID: 1

Режим чтения                 : Достоверность
Использование точного потока : Да
Отключение кэша аудио        : Да
Использование указателей C2  : Нет

Коррекция смещения при чтении                     : 6
Способность читать области Lead-in и Lead-out     : Нет
Заполнение пропущенных сэмплов тишиной            : Да
Удаление блоков с тишиной в начале и конце        : Нет
При вычислениях CRC использовались нулевые сэмплы : Да
Интерфейс                                         : Встроенный Win32-интерфейс для Win NT/2000

Выходной формат : Внутренние WAV-операции
Формат сэмплов  : 44.100 Гц; 16 бит; стерео

TOC извлечённого CD

     Трек |   Старт  | Длительность | Начальный сектор | Конечный сектор
    ---------------------------------------------------------------------
       1  |  0:00.00 |    4:02.30   |           0      |      18179     
       2  |  4:02.30 |    3:34.07   |       18180      |      34236     
       3  |  7:36.37 |    2:56.10   |       34237      |      47446     
       4  | 10:32.47 |    3:39.43   |       47447      |      63914     
       5  | 14:12.15 |    4:21.67   |       63915      |      83556     
       6  | 18:34.07 |    4:51.23   |       83557      |     105404     
       7  | 23:25.30 |    2:58.60   |      105405      |     118814     
       8  | 26:24.15 |    4:16.25   |      118815      |     138039     
       9  | 30:40.40 |    3:02.15   |      138040      |     151704     
      10  | 33:42.55 |    4:36.27   |      151705      |     172431     
      11  | 38:19.07 |    2:14.03   |      172432      |     182484     
      12  | 40:33.10 |    2:18.22   |      182485      |     192856     
      13  | 42:51.32 |    2:36.73   |      192857      |     204629     
      14  | 45:28.30 |    2:17.17   |      204630      |     214921     
      15  | 47:45.47 |    2:55.58   |      214922      |     228104     
      16  | 50:41.30 |    3:07.55   |      228105      |     242184     
      17  | 53:49.10 |    3:39.62   |      242185      |     258671     

Характеристики диапазона извлечения и сообщения об ошибках

Выбранный диапазон

     Имя файла C:\vlad victorovich\Дмитрий Хворостовский - Песни военных лет.wav

     Пиковый уровень 94.3 %
     Скорость извлечения 8.6 X
     Качество диапазона 100.0 %
     CRC теста E69CB5D9
     CRC копии E69CB5D9
     Копирование... OK

Ошибок не произошло

 
AccurateRip: сводка
 
Трек  1  точность не определена (достоверность 2)  [951D2A6C], AccurateRip вернул [71049579]  (AR v2)
Трек  2  точность не определена (достоверность 2)  [51F65273], AccurateRip вернул [AA26F789]  (AR v2)
Трек  3  точность не определена (достоверность 2)  [863FF3F6], AccurateRip вернул [4E2C7A44]  (AR v2)
Трек  4  точность не определена (достоверность 2)  [BB6707A1], AccurateRip вернул [F7D4EFDE]  (AR v2)
Трек  5  точность не определена (достоверность 2)  [F6AB217C], AccurateRip вернул [AD7226E3]  (AR v2)
Трек  6  точность не определена (достоверность 2)  [72C9E63F], AccurateRip вернул [0E692CBE]  (AR v2)
Трек  7  точность не определена (достоверность 2)  [FB6311AD], AccurateRip вернул [472F2B8C]  (AR v2)
Трек  8  точность не определена (достоверность 2)  [36F355D3], AccurateRip вернул [F39657E2]  (AR v2)
Трек  9  точность не определена (достоверность 2)  [4431E6CE], AccurateRip вернул [2BAFD1CC]  (AR v2)
Трек 10  точность не определена (достоверность 2)  [9EC58F9F], AccurateRip вернул [3E91E15C]  (AR v2)
Трек 11  точность не определена (достоверность 2)  [74B7F4A8], AccurateRip вернул [0D49D874]  (AR v2)
Трек 12  точность не определена (достоверность 2)  [088F924D], AccurateRip вернул [6EEA0394]  (AR v2)
Трек 13  точность не определена (достоверность 2)  [E6C7BFB0], AccurateRip вернул [E655EF5E]  (AR v2)
Трек 14  точность не определена (достоверность 2)  [C1BBFA7C], AccurateRip вернул [CF2E2542]  (AR v2)
Трек 15  точность не определена (достоверность 2)  [4DA86BE4], AccurateRip вернул [D83B01A1]  (AR v2)
Трек 16  точность не определена (достоверность 2)  [F9EB392D], AccurateRip вернул [34B986D8]  (AR v2)
Трек 17  точность не определена (достоверность 2)  [2748673B], AccurateRip вернул [E713B196]  (AR v2)
 
Ни один трек не прошёл проверки на точность
В вашей базе может быть иной вариант штамповки диска

Конец отчёта

==== Контрольная сумма отчёта 22FCB8193ABBF0F678BD6FFE0A6D2A22CEECB7833760A462243509BE16258C8E ====

Код:

REM GENRE Vocal
REM DATE 2007
REM DISCID D60D7811
REM COMMENT "ExactAudioCopy v1.0b3"
PERFORMER "Дмитрий Хворостовский"
TITLE "Песни военных лет "
FILE "Дмитрий Хворостовский - Песни военных лет.wav" WAVE
  TRACK 01 AUDIO
    TITLE "Где-то далеко (Песня о далекой родине)"
    PERFORMER "Дмитрий Хворостовский"
    INDEX 01 00:00:00
  TRACK 02 AUDIO
    TITLE "Темная ночь"
    PERFORMER "Дмитрий Хворостовский"
    INDEX 01 04:02:30
  TRACK 03 AUDIO
    TITLE "Случайный вальс"
    PERFORMER "Дмитрий Хворостовский"
    INDEX 01 07:36:37
  TRACK 04 AUDIO
    TITLE "Где-же вы теперь, друзья-однополчане?"
    PERFORMER "Дмитрий Хворостовский"
    INDEX 01 10:32:47
  TRACK 05 AUDIO
    TITLE "На безымянной высоте"
    PERFORMER "Дмитрий Хворостовский"
    INDEX 01 14:12:15
  TRACK 06 AUDIO
    TITLE "Дороги"
    PERFORMER "Дмитрий Хворостовский"
    INDEX 01 18:34:07
  TRACK 07 AUDIO
    TITLE "Вот солдаты идут"
    PERFORMER "Дмитрий Хворостовский"
    INDEX 01 23:25:30
  TRACK 08 AUDIO
    TITLE "Журавли"
    PERFORMER "Дмитрий Хворостовский"
    INDEX 01 26:24:15
  TRACK 09 AUDIO
    TITLE "В землянке"
    PERFORMER "Дмитрий Хворостовский"
    INDEX 01 30:40:40
  TRACK 10 AUDIO
    TITLE "Заветный камень"
    PERFORMER "Дмитрий Хворостовский"
    INDEX 01 33:42:55
  TRACK 11 AUDIO
    TITLE "Катюша"
    PERFORMER "Дмитрий Хворостовский"
    INDEX 01 38:19:07
  TRACK 12 AUDIO
    TITLE "Казаки в Берлине"
    PERFORMER "Дмитрий Хворостовский"
    INDEX 01 40:33:10
  TRACK 13 AUDIO
    TITLE "Моя Москва"
    PERFORMER "Дмитрий Хворостовский"
    INDEX 01 42:51:32
  TRACK 14 AUDIO
    TITLE "Дорожка фронтовая (Песенка фронтового шофера)"
    PERFORMER "Дмитрий Хворостовский"
    INDEX 01 45:28:30
  TRACK 15 AUDIO
    TITLE "На сопках Маньчжурии"
    PERFORMER "Дмитрий Хворостовский"
    INDEX 01 47:45:47
  TRACK 16 AUDIO
    TITLE "Одинокая гармонь"
    PERFORMER "Дмитрий Хворостовский"
    INDEX 01 50:41:30
  TRACK 17 AUDIO
    TITLE "Последний бой"
    PERFORMER "Дмитрий Хворостовский"
    INDEX 01 53:49:10

Этот торрент недоступен для скачивания без регистрации, однако доступен по публичной magnet-ссылке (источники с публичных трекеров). Перед использованием ссылки прочтите, пожалуйста Пользовательское соглашение, а также как можно дольше оставайтесь на раздаче! Для того, чтобы скачать сам торрент-файл (который видит больше источников), а также для того, чтобы поблагодарить релизера, вам необходимо зарегистрироваться. Если регистрироваться лень - вы можете также попробовать скачать релиз по нашим партнерским ссылкам ниже. Кроме того, зарегистрированным пользователям не показывается всплывающая реклама при скачивании.

[underverse.me].t97553.torrent
Трекер: Зарегистрирован   [ 22.02.2018 05:24 ]  

Статус: проверено (by Бишеп at 22.02.2018 05:24)
Поблагодарили: 2 человека
Тип торрента: публичный - доступные источники с открытых трекеров: 
Размер: 266 MB (занимает 0.06 DVDR, для записи нужно 1 болванка DVDR/RW)
 
 
Похожие темы
Форум Тема Автор Торрент Отв. Посл. сооб.
Военные и патриотические песни (Военная песня) VA - XX век. Ретропанорама. Священная война (2008) [MP3, 320 kbps] garry
1 | 0

0 | 4021

11

26.04.2010 20:05

Военные и патриотические песни (Военная песня) Николай Вишняк "Мой - Афган" - 2008, MP3 (tracks), 192 kbps Bugor
1 | 0

0 | 2638

15

11.09.2012 15:22

Военные и патриотические песни (Военная песня) VA - Афган - Сборник песен об Афганской войне (2004) [MP3, 320 kbps] Bugor
1 | 1

2 | 3653

25

08.12.2012 14:02

Военные и патриотические песни (Военная песня) Голубые береты - MP3 Play. Музыкальная коллекция (2014) [MP3, 320 kbps] viktor.r-79
2 | 0

2 | 2829

23

06.11.2014 07:17

Военные и патриотические песни (Военная песня) Голубые Береты - Минное поле (2009) [MP3, 320 kbps CBR] SASHOK
1 | 0

0 | 1963

17

27.04.2015 16:08

Военные и патриотические песни (Военная песня) Ольга Фаворская - Война (2018) [MP3, 320 kbps CBR] Magnat
3 | 0

1 | 740

13

03.06.2019 16:16

Сборники (Военная песня) Сборник - Песни Великой Войны 1939-1945: Священная война (2013) [MP3, 128-320 kbps] Renesans
1 | 0

0 | 123

3

27.07.2021 08:48

Сборники / Дискографии (Военная песня) VA - Песни Победы. 75-летию посвящается (Volume 1,2,3) (2020) [FLAC (Tracks), Lossless] Web Бишеп
9 | 0

0 | 1309

12

09.05.2020 13:31


Яндекс.Метрика powered by Sphinx


В Н И М А Н И Е
Сайт не распространяет и не хранит электронные версии произведений, а лишь бесплатно и без коммерческой выгоды (не требуя взамен платы,
SMS и т.д.) предоставляет доступ к создаваемому пользователями каталогу ссылок на торрент-файлы, которые содержат только списки хеш-сумм.
Убедительная просьба с жалобами обращаться напрямую к пользователю, разместившему торрент файл.

Вверх